<?xml version="1.0" encoding="UTF-8" standalone="no"?>
<svg
   xmlns:dc="http://purl.org/dc/elements/1.1/"
   xmlns:cc="http://creativecommons.org/ns#"
   xmlns:rdf="http://www.w3.org/1999/02/22-rdf-syntax-ns#"
   xmlns:svg="http://www.w3.org/2000/svg"
   xmlns="http://www.w3.org/2000/svg"
   xmlns:xlink="http://www.w3.org/1999/xlink"
   id="svg134"
   viewBox="0 0 200 200"
   style="clip-rule:evenodd;fill-rule:evenodd;image-rendering:optimizeQuality;shape-rendering:geometricPrecision;text-rendering:geometricPrecision"
   version="1.1"
   height="200"
   width="200"
   xml:space="preserve"><metadata
     id="metadata138"><rdf:RDF><cc:Work
         rdf:about=""><dc:format>image/svg+xml</dc:format><dc:type
           rdf:resource="http://purl.org/dc/dcmitype/StillImage" /><dc:title></dc:title></cc:Work></rdf:RDF></metadata><defs
     id="defs92"><font
       vert-adv-y="90"
       vert-origin-y="90"
       vert-origin-x="45"
       horiz-origin-y="0"
       horiz-origin-x="0"
       font-weight="400"
       font-style="normal"
       font-variant="normal"
       horiz-adv-x="666"
       id="FontID0"><font-face
         id="font-face2"
         font-family="Arial"><font-face-src><font-face-name
             name="Arial" /></font-face-src></font-face><missing-glyph
         id="missing-glyph6"><path
           id="path4"
           d="M0 0z" /></missing-glyph><glyph
         id="glyph8"
         d="M65.9901 -198.991l0 717.983 80.0215 0 0 -68.1728c18.8219,26.3337 40.1667,46.1761 63.9775,59.3571 23.6691,13.1527 52.4973,19.814 86.3428,19.814 44.3336,0 83.3381,-11.3102 117.155,-34.1573 33.8455,-22.677 59.3571,-54.8217 76.6767,-96.1789 17.1778,-41.499 25.8235,-86.8246 25.8235,-136.317 0,-52.8375 -9.496,-100.516 -28.488,-143.007 -18.992,-42.321 -46.658,-74.8342 -82.9979,-97.4829 -36.1699,-22.5069 -74.3239,-33.8455 -114.349,-33.8455 -29.3101,0 -55.6437,6.15114 -78.831,18.5101 -23.329,12.3306 -42.321,27.8077 -57.3162,46.658l0 -253.161 -88.0152 0zm80.0215 455.326c0,-66.5004 13.4928,-115.681 40.3084,-147.514 27.014,-31.8329 59.6689,-47.8202 98.0214,-47.8202 39.0045,0 72.3114,16.4975 100.006,49.4926 27.8077,32.9951 41.6407,84.0184 41.6407,153.183 0,65.9901 -13.4928,115.313 -40.6486,148.166 -27.1841,32.825 -59.4988,49.1524 -97.171,49.1524 -37.332,0 -70.3271,-17.4897 -99.0135,-52.3272 -28.8282,-35.0077 -43.143,-85.6625 -43.143,-152.333z"
         horiz-adv-x="556"
         unicode="р" /><glyph
         id="glyph10"
         d="M65.9901 518.992l88.0152 0 0 -215.999 244.005 0 0 215.999 87.9868 0 0 -518.992 -87.9868 0 0 230.002 -244.005 0 0 -230.002 -88.0152 0 0 518.992z"
         horiz-adv-x="552"
         unicode="н" /><glyph
         id="glyph12"
         d="M560.009 518.992l87.9868 0 0 -518.992 -87.9868 0 0 518.992zm-491.014 0l88.0152 0 0 -202.988 111.004 0c72.4814,0 128.154,-14.0031 167.328,-42.1793 39.1462,-28.1479 58.6484,-66.9823 58.6484,-116.503 0,-43.3131 -16.3275,-80.3334 -48.9824,-111.146 -32.6833,-30.8408 -84.8404,-46.1761 -156.67,-46.1761l-219.344 0 0 518.992zm88.0152 -446.992l92.3238 0c55.502,0 95.3285,6.83145 118.998,20.4944 23.8392,13.6629 35.6596,35.0077 35.6596,64.0059 0,22.5069 -8.81569,42.4911 -26.3337,60.1791 -17.6597,17.4897 -56.4941,26.3337 -116.645,26.3337l-104.002 0 0 -171.013z"
         horiz-adv-x="718"
         unicode="ы" /><glyph
         id="glyph14"
         d="M64.998 518.992l88.0152 0 0 -223.992c27.9778,0 47.6501,5.3291 58.9886,16.1574 11.1684,10.6865 27.666,41.8391 49.6627,93.6844 17.3479,40.9887 31.3226,68.0027 42.0092,80.9853 10.8283,13.0109 23.1589,21.8266 37.162,26.3337 14.1731,4.50706 36.6517,6.83145 67.4925,6.83145l17.6597 0 0 -72.4814 -24.4912 0.481887c-23.1589,0 -37.984,-3.48659 -44.5037,-10.318 -6.83145,-7.17161 -17.3196,-28.5164 -31.3226,-64.0059 -13.3511,-34.0155 -25.5117,-57.5146 -36.6801,-70.4972 -10.9984,-13.0109 -28.1479,-24.8313 -51.3351,-35.6596 37.8423,-10.1763 75.1743,-45.354 111.854,-105.675l96.4907 -160.837 -96.6608 0 -95.1868 160.327c-19.1621,32.5132 -35.8297,53.8296 -49.9745,64.176 -14.3432,10.318 -31.351,15.5054 -51.165,15.5054l0 -240.008 -88.0152 0 0 518.992z"
         horiz-adv-x="437"
         unicode="к" /><glyph
         id="glyph16"
         d="M180.991 234.991l0 69.0232c37.0202,0.311809 62.3335,1.81416 75.6846,4.30863 13.4928,2.66455 26.3337,10.3464 38.3242,23.3573 11.9905,12.9826 17.9999,29.14 17.9999,48.6422 0,23.4991 -7.82357,42.5194 -23.6691,56.5225 -15.8172,14.1448 -36.1699,21.1463 -61.3413,21.1463 -49.4926,0 -84.1601,-28.9982 -104.002,-86.9947l-83.99 14.0031c25.9935,96.6608 89.0073,144.991 188.673,144.991 55.3319,0 98.6734,-14.9952 130.166,-45.1556 31.4927,-30.1604 47.1682,-66.1602 47.1682,-107.999 0,-42.1793 -20.4944,-75.8263 -61.3413,-100.658 26.1636,-14.0031 45.6659,-31.8329 58.8469,-53.5178 12.9826,-21.6566 19.5022,-47.3383 19.5022,-76.9885 0,-46.5162 -17.0078,-84.1601 -50.8532,-113.158 -33.9872,-29.0266 -81.3255,-43.5115 -142.327,-43.5115 -118.346,0 -187,52.3272 -205.822,157.01l82.9979 17.9999c7.48342,-33.0234 22.6487,-58.6768 45.6659,-76.8468 22.9888,-18.17 49.1524,-27.1557 78.831,-27.1557 29.6502,0 54.3398,8.33381 73.9838,25.1715 19.6723,16.6393 29.5085,37.984 29.5085,63.9775 0,20.1826 -6.15114,37.6722 -18.5101,52.6674 -12.3306,14.9952 -25.4833,24.3495 -39.4864,28.0061 -14.0031,3.82675 -39.3446,5.66926 -75.9964,5.66926 -3.00471,0 -9.66608,-0.170078 -20.0125,-0.510233z"
         horiz-adv-x="458"
         unicode="з" /><glyph
         id="glyph18"
         d="M72.9917 0l0 715.999 268.666 0c54.68,0 98.5033,-7.17161 131.668,-21.6566 32.9951,-14.5133 58.8469,-36.8502 77.4987,-67.0106 18.8503,-29.9904 28.1762,-61.5114 28.1762,-94.5065 0,-30.5006 -8.33381,-59.3288 -24.8313,-86.3144 -16.4975,-27.014 -41.499,-48.8406 -75.0043,-65.5082 43.3415,-12.6708 76.6767,-34.3273 99.8356,-64.998 23.329,-30.5006 35.0077,-66.6704 35.0077,-108.339 0,-33.6754 -7.17161,-64.8279 -21.3447,-93.6561 -14.1731,-28.8282 -31.6628,-50.995 -52.4973,-66.6704 -20.8345,-15.5054 -46.9981,-27.3258 -78.3208,-35.3478 -31.5211,-7.99365 -70.0153,-11.9905 -115.681,-11.9905l-273.173 0zm95.0167 414.99l154.827 0c42.0092,0 72.1696,2.83463 90.3396,8.33381 24.151,7.17161 42.321,19.1904 54.4815,35.8297 12.1889,16.6676 18.34,37.5021 18.34,62.6736 0,23.8392 -5.66926,44.8438 -17.1495,62.8437 -11.3385,18.17 -27.6943,30.6707 -48.8406,37.332 -21.1747,6.66138 -57.5146,10.0062 -108.85,10.0062l-143.149 0 0 -217.019zm0 -330.999l178.326 0c30.6707,0 52.1572,1.19054 64.6579,3.51494 21.6849,3.82675 39.9966,10.318 54.68,19.5022 14.655,9.15585 26.6738,22.5069 36.1699,39.9966 9.496,17.4897 14.1448,37.6722 14.1448,60.491 0,26.8439 -6.83145,50.0028 -20.6644,69.8452 -13.6629,19.814 -32.6549,33.647 -56.976,41.669 -24.1794,7.99365 -59.187,11.9905 -104.683,11.9905l-165.656 0 0 -247.009z"
         horiz-adv-x="666"
         unicode="В" /><glyph
         id="glyph20"
         d="M6.00941 0l189.495 268.836 -175.492 250.156 108.141 0 82.0058 -122.484c15.1653,-23.0172 27.1841,-41.669 35.688,-56.3524 14.8251,20.8345 27.9778,39.6848 39.8265,56.5225l86.3144 122.314 107.517 0 -176.512 -250.156 187.993 -268.836 -106.979 0 -107.347 159.986 -24.4912 38.5226 -138.67 -198.509 -107.489 0z"
         horiz-adv-x="500"
         unicode="х" /><glyph
         id="glyph22"
         d="M135.013 518.992l361.982 0 0 -446.992 56.0122 0 0 -219.003 -71.9995 0 0 147.004 -409.008 0 0 -147.004 -71.9995 0 0 219.003 46.006 0c61.9933,84.1601 91.6719,233.176 89.0073,446.992zm72.9917 -72.9917c-6.4913,-168.49 -32.5132,-293.157 -78.009,-374.001l279.012 0 0 374.001 -201.003 0z"
         horiz-adv-x="583"
         unicode="д" /><glyph
         id="glyph24"
         d="M20.0125 518.992l419.978 0 0 -72.9917 -165.996 0 0 -446 -87.9868 0 0 446 -165.996 0 0 72.9917z"
         horiz-adv-x="457"
         unicode="т" /><glyph
         id="glyph26"
         d="M81.0137 0l0 715.999 94.9884 0 0 -295 370.004 0 0 295 94.9884 0 0 -715.999 -94.9884 0 0 337.009 -370.004 0 0 -337.009 -94.9884 0z"
         horiz-adv-x="722"
         unicode="Н" /><glyph
         id="glyph28"
         d="M65.9901 518.992l410.001 0 0 -518.992 -87.9868 0 0 446 -233.999 0 0 -446 -88.0152 0 0 518.992z"
         horiz-adv-x="541"
         unicode="п" /><glyph
         id="glyph30"
         d="M68.9948 518.992l135.325 0 137.168 -415.33 151.851 415.33 125.659 0 0 -518.992 -87.9868 0 0 417.824 -152.843 -417.824 -78.6609 0 -144.509 437.837 0 -437.837 -86.0026 0 0 518.992z"
         horiz-adv-x="687"
         unicode="м" /><glyph
         id="glyph32"
         d="M198.991 302.001l0 -71.9995 183.004 0c-5.49918,-56.3241 -19.9841,-98.5033 -43.6533,-126.68 -23.4991,-28.1479 -56.3524,-42.321 -98.1632,-42.321 -74.1822,0 -117.835,43.0013 -131.187,129.004l-86.0026 -12.0188c9.18419,-56.6642 32.8533,-102.33 71.0074,-136.998 38.1824,-34.6675 88.1569,-51.9871 149.838,-51.9871 73.5019,-4.1669 130.336,19.1621 170.673,69.987 40.3368,50.8532 59.4988,117.665 57.4863,200.522 0,84.1601 -21.0046,150.32 -62.8154,198.311 -42.0092,48.1887 -99.1836,72.1696 -171.523,72.1696 -57.8264,0 -104.654,-15.3353 -140.314,-45.8359 -35.8297,-30.6423 -57.5146,-69.987 -65.3382,-118.147l85.0105 -14.0031c14.3149,69.987 55.4737,104.995 123.476,104.995 39.0045,0 71.0074,-14.3432 95.8388,-43.0013 25.0014,-28.6581 40.1667,-65.9901 45.6659,-111.996l-183.004 0z"
         horiz-adv-x="510"
         unicode="э" /><glyph
         id="glyph34"
         d="M65.9901 518.992l88.0152 0 0 -395.827 244.487 395.827 94.5065 0 0 -518.992 -87.9868 0 0 393.333 -244.175 -393.333 -94.8466 0 0 518.992zm304.014 192.018l60.0091 0c-4.84721,-41.1871 -19.8424,-72.8499 -44.8438,-94.8466 -25.0014,-22.1668 -58.1666,-33.1651 -99.6655,-33.1651 -41.669,0 -75.0043,10.9984 -99.8356,32.825 -24.8313,21.9967 -39.8265,53.6879 -44.6737,95.1868l60.0091 0c4.50706,-22.5069 13.6629,-39.3446 27.1557,-50.343 13.5212,-11.1684 31.8329,-16.6676 54.68,-16.6676 26.5038,0 46.4879,5.3291 59.9807,16.1574 13.5212,10.6865 22.677,27.666 27.1841,50.8532z"
         horiz-adv-x="558"
         unicode="й" /><glyph
         id="glyph36"
         d="M79.0011 715.999l94.9884 0 0 -632.009 237.003 0 0 632.009 95.0167 0 0 -632.009 237.003 0 0 632.009 94.9884 0 0 -715.999 -759 0 0 715.999z"
         horiz-adv-x="916"
         unicode="Ш" /><glyph
         id="glyph38"
         d="M32.9951 518.992l88.0152 0 0 -97.9931c0,-42.321 2.49447,-72.9917 7.6535,-92.012 4.98894,-18.992 17.1778,-35.6596 36.51,-49.8328 19.1621,-14.1448 43.3131,-21.1463 72.4814,-21.1463 33.3352,0 76.3365,8.81569 129.344,26.3337l0 234.65 87.9868 0 0 -518.992 -87.9868 0 0 209.507c-54.1697,-17.0078 -104.825,-25.5117 -151.823,-25.5117 -39.5147,0 -74.3523,10.0062 -104.513,29.9904 -30.1604,20.0125 -50.6548,44.5037 -61.4831,73.5019 -10.8566,28.9982 -16.1857,60.8595 -16.1857,95.6687l0 135.835z"
         horiz-adv-x="521"
         unicode="ч" /><glyph
         id="glyph40"
         d="M380.01 518.992l0 -223.992c28.3179,0 48.3304,5.3291 59.8106,15.8456 11.5086,10.6582 28.0061,41.8108 49.3509,93.8262 19.9841,49.3225 38.1541,80.6735 54.4815,94.3364 16.0156,13.3228 41.3572,19.9841 76.1664,19.9841l32.173 0 0 -72.4814 -23.8392 0.481887c-23.4991,0 -38.3242,-3.48659 -44.8155,-10.318 -6.83145,-7.17161 -17.3479,-28.5164 -31.351,-64.0059 -12.9826,-34.0155 -24.9731,-57.3445 -35.9998,-70.4972 -10.9984,-13.0109 -28.3179,-24.8313 -51.6469,-35.6596 37.984,-10.1763 75.0043,-45.354 111.146,-105.675l96.5191 -160.837 -96.6608 0 -94.0246 160.667c-19.1621,32.6549 -35.9998,53.9997 -50.1446,64.176 -14.3432,10.148 -31.351,15.1653 -51.165,15.1653l0 -240.008 -89.9994 0 0 240.008c-19.5022,0 -36.3399,-5.01729 -50.5131,-14.9952 -14.3432,-10.0062 -31.0108,-31.5211 -50.0028,-64.5161l-94.8183 -160.497 -96.6892 0 96.1789 160.837c36.51,60.3209 73.8421,95.4986 111.826,105.675 -25.9935,11.9905 -44.3336,25.1431 -54.6516,39.3163 -10.5165,14.1731 -25.9935,48.0186 -46.8281,101.508 -7.17161,17.9999 -14.8534,28.9982 -23.0172,32.9951 -8.50388,4.1669 -21.0046,6.17949 -37.6722,6.17949 -4.1669,0 -12.8125,-0.170078 -25.8235,-0.510233l0 72.9917 12.1606 0c34.0155,0 57.8264,-1.98424 71.6594,-6.15114 13.833,-3.99683 26.192,-12.6708 37.1903,-25.8518 10.8283,-13.1527 25.0014,-40.4785 42.321,-82.3176 21.1747,-51.165 37.5021,-82.1759 48.8406,-93.1742 11.3385,-10.9984 31.3226,-16.4975 59.839,-16.4975l0 223.992 89.9994 0z"
         horiz-adv-x="669"
         unicode="ж" /><glyph
         id="glyph42"
         d="M367.991 715.999l88.0152 0 0 -248.002c18.17,20.8345 38.1541,36.3399 59.9807,46.658 21.6849,10.1763 45.184,15.3353 70.1854,15.3353 61.3413,0 109.984,-25.6534 145.983,-76.8184 35.858,-51.165 53.8579,-115.511 53.8579,-193.18 0,-80.9853 -19.3605,-146.323 -58.0248,-196.156 -38.6643,-49.8328 -86.8246,-74.8342 -144.311,-74.8342 -18.8503,0 -38.0124,3.00471 -57.5146,8.84404 -19.5022,5.81099 -42.8312,21.8266 -70.157,47.8202l0 -244.657 -88.0152 0 0 244.657c-17.4897,-18.8219 -36.9919,-32.9951 -58.3366,-42.4911 -21.3164,-9.496 -44.3336,-14.1731 -69.1649,-14.1731 -54.3115,0 -101.82,23.8392 -142.497,71.3192 -40.6486,47.6784 -61.0012,115.851 -61.0012,204.518 0,75.1743 18.34,137.99 55.1619,188.815 36.8502,50.8532 86.1727,76.3365 148.336,76.3365 26.1636,0 49.6627,-5.15902 70.8373,-15.3353 21.1747,-10.318 39.9966,-25.8235 56.6642,-46.658l0 248.002zm87.505 -458.671c0,-77.9806 10.6582,-130.336 32.173,-157.152 21.3447,-26.8439 48.1603,-40.1667 80.3334,-40.1667 35.6596,0 66.1602,16.4975 91.3317,49.4926 25.1715,32.825 37.6722,84.1601 37.6722,153.665 0,65.5082 -11.6787,114.491 -34.8376,146.664 -23.1589,32.173 -53.0075,48.1603 -89.3475,48.1603 -38.9761,0 -68.1445,-16.6676 -87.8168,-50.1446 -19.6723,-33.5053 -29.5085,-83.6782 -29.5085,-150.519zm-328.505 10.0062c0,-73.1617 12.3306,-125.829 36.8502,-158.002 24.4912,-32.173 54.8217,-48.3304 91.1616,-48.3304 37.984,0 66.5004,15.9873 85.3223,47.9902 18.6802,32.0029 28.1762,80.1633 28.1762,144.169 0,68.3429 -9.83616,119.508 -29.6786,153.665 -19.814,34.1856 -49.6627,51.165 -89.6593,51.165 -35.9998,0 -65.3382,-16.6676 -88.1569,-50.0028 -22.677,-33.3352 -34.0155,-80.1633 -34.0155,-140.654z"
         horiz-adv-x="822"
         unicode="ф" /><glyph
         id="glyph44"
         d="M65.9901 518.992l298.997 0 0 -72.9917 -210.981 0 0 -446 -88.0152 0 0 518.992z"
         horiz-adv-x="364"
         unicode="г" /><glyph
         id="glyph46"
         d="M81.0137 715.999l464.992 0 0 -83.99 -370.004 0 0 -221.016 170.985 0c63.1839,0 113.357,-5.98106 150.689,-18.17 37.332,-11.9905 67.1523,-34.6675 89.6593,-68.1445 22.5069,-33.3352 33.6754,-72.1696 33.6754,-116.503 0,-36.1699 -8.022,-70.0153 -24.1794,-101.338 -16.1574,-31.4927 -40.1667,-57.1744 -72.1696,-77.0168 -31.8329,-19.814 -86.3144,-29.8203 -163.161,-29.8203l-280.486 0 0 715.999zm94.9884 -634.985l189.495 0c51.165,0 89.4892,10.318 115.171,31.1526 25.5117,20.8345 38.3242,51.9871 38.3242,93.5144 0,29.6502 -7.31334,54.3115 -21.9967,74.1539 -14.655,19.8424 -35.0077,32.9951 -61.0012,39.4864 -26.1636,6.51964 -70.6673,9.66608 -133.483,9.66608l-126.509 0 0 -247.973z"
         horiz-adv-x="656"
         unicode="Б" /><glyph
         id="glyph48"
         d="M78.009 715.999l561.993 0 0 -715.999 -94.9884 0 0 632.009 -372.017 0 0 -632.009 -94.9884 0 0 715.999z"
         horiz-adv-x="718"
         unicode="П" /><glyph
         id="glyph50"
         d="M405.012 190.005l85.9743 -12.0188c-9.496,-59.1587 -33.477,-105.306 -72.3114,-138.812 -38.8344,-33.5053 -86.6829,-50.1729 -143.177,-50.1729 -70.8373,0 -127.842,23.1589 -170.843,69.5051 -43.143,46.3178 -64.6579,112.648 -64.6579,198.991 0,56.0122 9.32593,104.825 27.836,146.834 18.5101,41.8391 46.658,73.3318 84.6703,94.1663 37.8423,21.0046 79.0011,31.4927 123.675,31.4927 56.154,0 102.33,-14.1448 137.99,-42.6611 35.8297,-28.488 58.8185,-68.9948 68.8248,-121.322l-84.9821 -13.0109c-8.16373,34.8376 -22.5069,61.0012 -43.3415,78.6609 -20.6644,17.518 -45.6659,26.3337 -75.0043,26.3337 -44.3336,0 -80.3334,-15.8172 -108.169,-47.48 -27.666,-31.8329 -41.499,-81.8357 -41.499,-150.519 0,-69.6468 13.3511,-120.16 39.9966,-151.653 26.8439,-31.4927 61.6815,-47.3383 104.513,-47.3383 34.6675,0 63.4957,10.4881 86.4845,31.6628 23.1873,21.0046 37.8423,53.4894 44.0218,97.3411z"
         horiz-adv-x="500"
         unicode="с" /><glyph
         id="glyph52"
         d="M405.012 64.998c-32.6833,-27.836 -64.176,-47.3383 -94.3364,-58.8185 -30.1888,-11.5086 -62.5035,-17.1778 -97.171,-17.1778 -57.0044,0 -100.828,13.833 -131.498,41.669 -30.6707,27.666 -46.006,63.1555 -46.006,106.327 0,25.3416 5.83933,48.5005 17.3196,69.5051 11.6787,21.0046 26.8439,37.6722 45.5241,50.343 18.8219,12.6424 39.8265,22.3085 63.3256,28.8282 17.3196,4.47871 43.5115,8.81569 78.3208,13.1527 71.0074,8.33381 123.505,18.5101 157.01,30.1604 0.340155,12.0188 0.510233,19.6723 0.510233,22.8471 0,35.6596 -8.33381,60.8311 -25.0014,75.4861 -22.5069,19.8424 -56.0122,29.6786 -100.346,29.6786 -41.499,0 -72.1696,-7.34169 -91.8419,-21.8266 -19.814,-14.5133 -34.3273,-40.1667 -43.8233,-77.1586l-86.0026 11.9905c7.85192,36.8218 20.6644,66.6704 38.6643,89.3191 17.9999,22.677 43.9934,39.9966 78.009,52.3556 33.8455,12.1606 73.3318,18.3117 118.006,18.3117 44.3336,0 80.5034,-5.15902 108.339,-15.6471 27.666,-10.5165 48.1603,-23.4991 61.1429,-39.3446 13.0109,-15.8456 22.1668,-35.8297 27.5242,-60.0091 2.80628,-14.9952 4.30863,-41.9808 4.30863,-80.8152l0 -116.673c0,-81.4955 1.84251,-133.001 5.49918,-154.827 3.51494,-21.8266 10.8566,-42.6611 21.5148,-62.6736l-92.012 0c-8.81569,18.5101 -14.4849,40.1667 -16.9794,64.998zm-7.00153 194.994c-32.0029,-12.9826 -80.0215,-23.981 -143.999,-32.9951 -36.3399,-5.15902 -62.0217,-10.9984 -77.0168,-17.4897 -14.9952,-6.51964 -26.5038,-16.0156 -34.6675,-28.3463 -8.16373,-12.5007 -12.3306,-26.3337 -12.3306,-41.669 0,-23.1589 8.84404,-42.6611 26.6738,-58.1666 17.8298,-15.5054 43.8233,-23.329 78.009,-23.329 33.8171,0 63.9775,7.34169 90.4813,22.1668 26.3337,14.6834 45.8359,34.8376 58.1666,60.3492 9.496,19.814 14.1731,48.9824 14.1731,87.4766l0.510233 32.0029z"
         horiz-adv-x="556"
         unicode="а" /><glyph
         id="glyph54"
         d="M474.999 518.992l0 -518.992 -87.9868 0 0 201.996 -50.6831 0c-30.8408,0 -53.8296,-3.99683 -68.9948,-12.1606 -15.1653,-8.16373 -37.332,-33.6754 -66.5004,-76.8468l-77.3286 -112.988 -108.991 0 94.9884 139.322c28.9982,42.6895 57.9965,66.6704 86.8246,72.1696 -50.1729,6.83145 -87.505,25.0014 -111.826,54.3398 -24.3211,29.3384 -36.51,63.1555 -36.51,101.338 0,45.1556 15.8456,81.6656 47.6784,109.672 31.8329,28.1479 78.009,42.1509 138.33,42.1509l241 0zm-87.9868 -72.9917l-125.007 0c-52.3272,0 -86.1727,-8.16373 -101.338,-24.4912 -15.1653,-16.3558 -22.677,-35.5179 -22.677,-57.3445 0,-31.0108 11.1684,-53.8296 33.5053,-68.3429 22.1668,-14.4849 61.6815,-21.8266 118.346,-21.8266l97.171 0 0 172.005z"
         horiz-adv-x="541"
         unicode="я" /><glyph
         id="glyph56"
         d=""
         horiz-adv-x="277"
         unicode=" " /><glyph
         id="glyph58"
         d="M32.9951 259.51c0,95.8104 26.6738,166.818 80.1633,212.994 44.5037,38.3242 99.0135,57.4863 163.161,57.4863 71.1775,0 129.514,-23.329 174.84,-69.987 45.184,-46.5162 67.8326,-111.004 67.8326,-193.18 0,-66.6704 -9.97789,-118.998 -29.9904,-157.152 -20.0125,-38.1824 -49.1808,-67.8326 -87.505,-89.0073 -38.1541,-21.1747 -79.9932,-31.6628 -125.177,-31.6628 -72.6515,0 -131.328,23.1589 -176.144,69.6752 -44.8438,46.4879 -67.1807,113.498 -67.1807,200.833zm89.9994 -0.170078c0,-66.3303 14.5133,-115.993 43.5115,-148.846 29.1683,-32.9951 65.65,-49.4926 109.813,-49.4926 43.6816,0 80.0215,16.4975 109.19,49.6627 28.9982,33.1651 43.4832,83.6782 43.4832,151.511 0,64.0059 -14.655,112.478 -43.8233,145.331 -29.1683,32.9951 -65.5082,49.4926 -108.85,49.4926 -44.1635,0 -80.6452,-16.3275 -109.813,-49.1524 -28.9982,-32.8533 -43.5115,-82.3459 -43.5115,-148.506z"
         horiz-adv-x="556"
         unicode="о" /><glyph
         id="glyph60"
         d="M64.0059 518.992l87.9868 0 0 -202.988 111.344 0c72.6515,0 128.494,-14.0031 167.838,-42.1793 39.1462,-28.1479 58.8185,-66.9823 58.8185,-116.503 0,-43.3131 -16.3275,-80.3334 -49.1524,-111.146 -32.6833,-30.8408 -85.0105,-46.1761 -157.01,-46.1761l-219.825 0 0 518.992zm87.9868 -446.992l92.664 0c55.8422,0 95.6687,6.83145 119.508,20.4944 23.8392,13.6629 35.8297,35.0077 35.8297,64.0059 0,22.5069 -8.81569,42.4911 -26.5038,60.1791 -17.6597,17.4897 -56.6642,26.3337 -117.155,26.3337l-104.343 0 0 -171.013z"
         horiz-adv-x="521"
         unicode="ь" /><glyph
         id="glyph62"
         d="M108.991 518.992l409.008 0 0 -518.482 -87.9868 0 0 445.49 -233.006 0 0 -258.178c0,-60.1508 -2.01259,-99.8356 -5.83933,-119.168 -3.99683,-19.1621 -14.655,-35.8297 -32.173,-50.1446 -17.6597,-14.3432 -43.0013,-21.5148 -76.1664,-21.5148 -20.4944,0 -44.1635,1.33228 -70.8373,3.82675l0 73.1901 38.5226 0c18.1416,0 31.1526,1.81416 38.9761,5.64091 7.85192,3.68502 13.0109,9.69443 15.6755,17.8582 2.49447,8.16373 3.82675,34.6675 3.82675,79.483l0 341.998z"
         horiz-adv-x="583"
         unicode="л" /><glyph
         id="glyph64"
         d="M65.9901 518.992l88.0152 0 0 -395.827 244.487 395.827 94.5065 0 0 -518.992 -87.9868 0 0 393.333 -244.175 -393.333 -94.8466 0 0 518.992z"
         horiz-adv-x="558"
         unicode="и" /><glyph
         id="glyph66"
         d="M67.0106 518.992l87.9868 0 0 -446.992 244.005 0 0 446.992 87.9868 0 0 -446.992 57.0044 0 0 -219.003 -71.9995 0 0 147.004 -404.983 0 0 518.992z"
         horiz-adv-x="572"
         unicode="ц" /><glyph
         id="glyph68"
         d="M420.007 168.008l90.9916 -12.0188c-14.1731,-52.8091 -40.6769,-93.9963 -79.3412,-123.165 -38.6643,-29.1683 -87.9868,-43.8233 -148.166,-43.8233 -75.6562,0 -135.665,23.329 -179.999,69.987 -44.3336,46.5162 -66.5004,112.024 -66.5004,196.185 0,86.9947 22.3369,154.657 67.1807,202.648 44.8155,48.1887 102.982,72.1696 174.5,72.1696 69.1649,0 125.659,-23.4991 169.482,-70.6673 43.8517,-47.1682 65.8484,-113.498 65.8484,-198.991 0,-5.15902 -0.170078,-13.0109 -0.510233,-23.329l-386.502 0c3.34486,-56.8343 19.3322,-100.516 48.3304,-130.676 28.8565,-30.1604 64.998,-45.3257 108.169,-45.3257 32.173,0 59.6689,8.50388 82.3459,25.5117 22.8188,16.9794 40.8186,44.1635 54.1697,81.4955zm-287.998 140.994l288.99 0c-3.82675,43.6533 -14.9952,76.3365 -33.1651,98.1632 -27.836,33.8455 -64.176,50.8249 -108.68,50.8249 -40.3084,0 -74.1539,-13.4928 -101.65,-40.4785 -27.3258,-27.014 -42.4911,-63.1839 -45.4958,-108.51z"
         horiz-adv-x="556"
         unicode="е" /><glyph
         id="glyph70"
         d="M-1.50235 0l274.675 715.999 104.173 0 291.485 -715.999 -107.829 0 -82.8278 216.991 -301.519 0 -77.6405 -216.991 -100.516 0zm205.992 294.008l244.005 0 -74.6641 198.481c-22.5069,60.3492 -39.4864,110.182 -51.3351,149.498 -9.83616,-46.658 -22.9888,-92.4939 -39.4864,-137.82l-78.5192 -210.159z"
         horiz-adv-x="666"
         unicode="А" /><glyph
         id="glyph72"
         d="M61.9933 -199.501l-10.0062 81.3255c19.3322,-5.15902 35.9998,-7.82357 50.343,-7.82357 19.6723,0 35.3478,3.34486 46.9981,9.83616 11.8487,6.4913 21.5148,15.6755 28.9982,27.3258 5.49918,8.84404 14.5133,30.6707 26.8439,65.6783 1.67243,4.81887 4.1669,11.9905 7.82357,21.4865l-197.007 520.664 94.0246 0 108.311 -299.649c14.1731,-37.8423 26.6738,-77.8389 37.8423,-119.848 10.1763,39.5147 22.1668,78.4908 36.1699,116.843l110.664 302.653 87.8451 0 -196.185 -528.006c-21.1463,-56.8059 -37.6722,-95.8104 -49.4926,-117.325 -15.6755,-28.8282 -33.6754,-50.0028 -53.8296,-63.4957 -20.3243,-13.4928 -44.5037,-20.1542 -72.5098,-20.1542 -17.0078,0 -35.9998,3.48659 -56.8343,10.4881z"
         horiz-adv-x="500"
         unicode="у" /><glyph
         id="glyph74"
         d="M65.9901 518.992l202.506 0c49.6627,0 86.6829,-4.1669 111.004,-12.5007 24.1794,-8.33381 45.0139,-23.4991 62.3335,-45.6659 17.4897,-22.3369 26.1636,-48.8123 26.1636,-79.8231 0,-24.8313 -5.15902,-46.5162 -15.3353,-64.8279 -10.318,-18.5101 -25.6534,-34.0155 -46.3178,-46.3462 24.3211,-8.16373 44.4753,-23.329 60.661,-45.6659 15.9873,-22.1668 23.981,-48.6706 23.981,-79.1712 -3.14644,-49.1524 -20.8062,-85.6625 -52.639,-109.332 -31.8329,-23.8392 -78.179,-35.6596 -138.84,-35.6596l-233.517 0 0 518.992zm88.0152 -219.003l93.3159 0c37.1903,0 62.8437,2.01259 76.6767,5.83933 14.0031,3.99683 26.5038,11.8487 37.5021,23.8392 10.9984,11.8204 16.4975,26.1636 16.4975,42.8312 0,27.4959 -9.66608,46.4879 -28.8282,57.3445 -19.3322,10.8283 -52.3272,16.1574 -99.0135,16.1574l-96.1506 0 0 -146.012zm0 -227.989l115.483 0c49.691,0 83.8483,5.83933 102.358,17.3479 18.4818,11.6503 28.1479,31.4927 29.14,59.9807 0,16.4975 -5.3291,32.0029 -15.9873,46.1761 -10.8283,14.1731 -24.8313,23.1589 -42.0092,26.8156 -17.1495,3.85509 -44.8155,5.66926 -82.8278,5.66926l-106.157 0 0 -155.99z"
         horiz-adv-x="531"
         unicode="в" /><glyph
         id="glyph76"
         d="M586.995 251.176l95.0167 -24.0093c-19.8424,-77.8389 -55.502,-136.998 -107.007,-177.845 -51.5052,-40.8186 -114.491,-61.313 -189.013,-61.313 -76.9885,0 -139.662,15.6471 -187.993,47.1682 -48.3304,31.3226 -85.0105,76.8184 -110.154,136.317 -25.1715,59.6689 -37.8423,123.505 -37.8423,191.848 0,74.494 14.1731,139.492 42.6611,194.994 28.5164,55.502 68.9948,97.6529 121.492,126.509 52.4973,28.8282 110.352,43.143 173.337,43.143 71.6594,0 131.839,-18.1416 180.509,-54.6516 48.8406,-36.51 82.8278,-87.675 101.99,-153.665l-93.0041 -21.9967c-16.4975,51.9871 -40.6486,89.9994 -72.1413,113.669 -31.5211,23.8109 -71.1775,35.6596 -119.026,35.6596 -54.8217,0 -100.828,-13.181 -137.65,-39.5147 -36.8502,-26.3337 -62.8437,-61.8232 -77.6688,-106.157 -14.9952,-44.5037 -22.5069,-90.3396 -22.5069,-137.508 0,-60.8311 8.84404,-113.98 26.5038,-159.334 17.6597,-45.4958 45.1556,-79.3129 82.4877,-101.82 37.332,-22.5069 77.6688,-33.6754 121.18,-33.6754 53.0075,0 97.6529,15.3353 134.333,45.8359 36.6801,30.6707 61.5114,75.9964 74.494,136.346z"
         horiz-adv-x="722"
         unicode="С" /></font>
</defs>
</svg>
